osu file format v14

[General]
AudioFilename: Doxx & Feint - Mind in motion.mp3
AudioLeadIn: 1500
PreviewTime: 97198
Countdown: 0
SampleSet: Soft
StackLeniency: 0.7
Mode: 0
LetterboxInBreaks: 1
WidescreenStoryboard: 0

[Editor]
Bookmarks: 64819,75605,118751,129538
DistanceSpacing: 1.6
BeatDivisor: 4
GridSize: 4
TimelineZoom: 1.9

[Metadata]
Title:Mind In Motion
TitleUnicode:Mind In Motion
Artist:Doxx & Feint
ArtistUnicode:Doxx & Feint
Creator:Secretpipe
Version:Insane
Source:
Tags:liquid dnb drum and bass lanturn moway galvenize
BeatmapID:520270
BeatmapSetID:222565

[Difficulty]
HPDrainRate:7
CircleSize:4
OverallDifficulty:7
ApproachRate:8
SliderMultiplier:1.6
SliderTickRate:1

[Events]
//Background and Video events
0,0,"MIM.jpg",0,0
//Break Periods
//Storyboard Layer 0 (Background)
//Storyboard Layer 1 (Fail)
//Storyboard Layer 2 (Pass)
//Storyboard Layer 3 (Foreground)
//Storyboard Sound Samples
//Background Colour Transformations
3,100,163,162,255

[TimingPoints]
120,337.078651685393,4,2,0,50,1,0
43266,-133.333333333333,4,2,0,50,0,0
44277,-133.333333333333,4,2,0,50,0,0
45962,-133.333333333333,4,2,0,50,0,0
48659,-133.333333333333,4,2,0,50,0,0
50681,-133.333333333333,4,2,0,50,0,0
54052,-133.333333333333,4,2,0,50,0,0
59445,-133.333333333333,4,2,0,50,0,0
61468,-133.333333333333,4,2,0,50,0,0
97198,-90.9090909090909,4,2,0,60,0,1
140344,-90.9090909090909,4,2,0,60,0,0

[Colours]
Combo1 : 17,254,176
Combo2 : 173,255,95
Combo3 : 255,88,100
Combo4 : 255,94,55

[HitObjects]
256,320,43266,6,0,B|305:308|336:264|336:214|313:177,1,180.000006866455,0|0,0:0|0:0,0:0:0:0:
192,44,44277,2,0,B|143:56|112:100|112:150|135:187,1,180.000006866455,0|0,0:0|0:0,0:0:0:0:
384,324,45288,1,0,0:0:0:0:
384,324,45457,1,0,0:0:0:0:
412,76,45962,5,0,0:0:0:0:
336,248,46468,1,0,0:0:0:0:
300,72,46973,1,0,0:0:0:0:
232,236,47479,1,0,0:0:0:0:
128,96,47985,1,0,0:0:0:0:
128,96,48153,1,0,0:0:0:0:
232,236,48659,6,0,B|273:184|340:167|398:187,2,180.000006866455,0|0|0,0:0|0:0|0:0,0:0:0:0:
348,336,50176,1,0,0:0:0:0:
224,144,50681,1,0,0:0:0:0:
156,192,50850,1,0,0:0:0:0:
171,208,51355,6,0,L|195:324,1,120.000004577637,0|0,0:0|0:0,0:0:0:0:
284,357,51861,2,0,L|260:237,1,120.000004577637,0|0,0:0|0:0,0:0:0:0:
348,268,52367,1,0,0:0:0:0:
448,120,52872,1,0,0:0:0:0:
240,48,53378,2,0,B|216:65|208:94|216:119,1,60.0000022888184,0|0,0:0|0:0,0:0:0:0:
100,64,54052,6,0,L|112:188,1,120.000004577637,0|0,0:0|0:0,0:0:0:0:
88,284,54558,2,0,B|130:253|186:253|228:282|248:323,1,180.000006866455,0|0,0:0|0:0,0:0:0:0:
468,212,55569,2,0,B|356:207|356:207|296:244,1,180.000006866455,0|0,0:0|0:0,0:0:0:0:
152,356,56243,2,0,B|197:334|219:284|207:236|177:205,1,180.000006866455,0|0,0:0|0:0,0:0:0:0:
64,72,57254,6,0,L|76:192,1,120.000004577637,0|0,0:0|0:0,0:0:0:0:
40,256,57760,1,0,0:0:0:0:
228,96,58266,2,0,L|236:226,1,120.000004577637,0|0,0:0|0:0,0:0:0:0:
236,215,58771,1,0,0:0:0:0:
236,215,58940,1,0,0:0:0:0:
376,28,59445,6,0,B|351:56|351:97|373:128|403:140,1,120.000004577637,0|0,0:0|0:0,0:0:0:0:
500,208,59951,2,0,B|460:192|417:206|393:237,1,120.000004577637,0|0,0:0|0:0,0:0:0:0:
256,304,60457,2,0,B|210:317|164:291|148:249,1,120.000004577637,0|0,0:0|0:0,0:0:0:0:
340,184,60962,2,0,L|352:316,1,120.000004577637,0|0,0:0|0:0,0:0:0:0:
350,303,61468,1,0,0:0:0:0:
350,303,61636,1,0,0:0:0:0:
260,340,62142,6,0,B|238:297|185:282|145:304,1,120.000004577637,0|0,0:0|0:0,0:0:0:0:
0,328,62648,1,0,0:0:0:0:
90,363,63153,2,0,L|78:239,1,120.000004577637,0|0,0:0|0:0,0:0:0:0:
20,136,63659,2,0,B|76:152|76:120|144:136,1,120.000004577637,0|0,0:0|0:0,0:0:0:0:
212,172,64164,1,0,0:0:0:0:
224,76,64333,1,0,0:0:0:0:
172,284,64839,6,0,B|215:263|265:280|288:319,1,120.000004577637,0|0,0:0|0:0,0:0:0:0:
360,380,65344,1,0,0:0:0:0:
384,272,65513,2,0,L|504:268,2,120.000004577637,0|0|0,0:0|0:0|0:0,0:0:0:0:
160,308,66355,2,0,B|124:303|96:274|93:237|108:209,1,120.000004577637,0|0,0:0|0:0,0:0:0:0:
104,112,66861,1,0,0:0:0:0:
104,112,67030,2,0,B|90:131|69:142|48:144,2,60.0000022888184,0|0|0,0:0|0:0|0:0,0:0:0:0:
216,184,67535,6,0,L|348:176,1,120.000004577637,0|0,0:0|0:0,0:0:0:0:
431,107,68041,1,0,0:0:0:0:
444,220,68378,1,0,0:0:0:0:
416,216,68546,2,0,B|401:263|349:286|304:268,1,120.000004577637,0|0,0:0|0:0,0:0:0:0:
216,184,69052,2,0,L|224:124,2,60.0000022888184,0|0|0,0:0|0:0|0:0,0:0:0:0:
207,295,69558,2,0,B|194:319|168:330|143:327,1,60.0000022888184,0|0,0:0|0:0,0:0:0:0:
310,154,69895,2,0,B|321:133|340:120|361:116,1,60.0000022888184,0|0,0:0|0:0,0:0:0:0:
136,52,70232,6,0,L|128:176,1,120.000004577637,0|0,0:0|0:0,0:0:0:0:
236,312,70737,2,0,L|312:304,2,60.0000022888184,0|0|0,0:0|0:0|0:0,0:0:0:0:
136,256,71243,2,0,B|110:248|83:259|68:280,2,60.0000022888184,0|0|0,0:0|0:0|0:0,0:0:0:0:
228,192,71749,2,0,B|254:200|281:189|296:168,2,60.0000022888184,0|0|0,0:0|0:0|0:0,0:0:0:0:
100,104,72254,2,0,L|104:176,1,60.0000022888184,0|0,0:0|0:0,0:0:0:0:
184,40,72591,2,0,L|188:112,1,60.0000022888184,0|0,0:0|0:0,0:0:0:0:
356,144,72928,6,0,B|395:127|437:128|472:144,1,120.000004577637,0|0,0:0|0:0,0:0:0:0:
228,192,73434,2,0,B|188:208|146:207|108:194,1,120.000004577637,0|0,0:0|0:0,0:0:0:0:
56,116,73940,1,0,0:0:0:0:
136,72,74445,1,0,0:0:0:0:
132,156,74951,1,0,0:0:0:0:
132,156,75119,1,0,0:0:0:0:
36,72,75625,6,0,L|44:200,1,120.000004577637,2|0,1:2|0:0,0:0:0:0:
40,308,76131,1,2,0:0:0:0:
40,308,76299,2,0,B|55:287|80:277|104:280,1,60.0000022888184,0|0,1:2|0:0,0:0:0:0:
184,320,76636,2,0,B|217:337|257:330|283:304|292:273,1,120.000004577637,2|0,0:0|0:0,0:0:0:0:
248,152,77142,2,0,L|176:156,2,60.0000022888184,2|0|0,0:0|1:0|0:0,0:0:0:0:
400,248,77648,2,0,B|393:227|379:211|362:202,1,60.0000022888184,2|2,1:2|0:0,0:0:0:0:
480,320,77985,2,0,B|500:304|508:279|504:256,1,60.0000022888184,0|0,0:0|0:0,0:0:0:0:
356,83,78322,6,0,L|363:203,1,120.000004577637,2|0,1:2|0:0,0:0:0:0:
322,372,78827,2,0,B|299:363|286:339|289:316,2,60.0000022888184,2|0|0,0:0|1:0|0:0,0:0:0:0:
375,308,79333,1,2,0:0:0:0:
196,356,79670,1,0,0:0:0:0:
196,356,79839,2,0,B|206:318|204:280,1,60.0000022888184,2|0,0:0|1:0,0:0:0:0:
193,222,80176,1,0,0:0:0:0:
140,163,80344,2,0,L|136:103,1,60.0000022888184,2|2,1:2|0:0,0:0:0:0:
260,16,80681,2,0,L|256:75,1,60.0000022888184,0|0,0:0|0:0,0:0:0:0:
362,206,81018,6,0,B|342:168|352:123|382:97,1,120.000004577637,2|0,1:2|0:0,0:0:0:0:
512,272,81524,2,0,L|384:280,1,120.000004577637,2|0,0:0|0:0,0:0:0:0:
436,160,82030,2,0,B|474:125|477:67|443:26|400:14,2,180.000006866455,2|2|2,0:0|0:0|1:2,0:0:0:0:
304,288,83209,1,2,0:0:0:0:
380,316,83378,2,0,B|418:313|450:294,1,60.0000022888184,0|0,0:0|0:0,0:0:0:0:
236,332,83715,6,0,L|168:336,1,60.0000022888184,0|0,1:0|0:0,0:0:0:0:
44,332,84052,1,0,0:0:0:0:
44,332,84221,1,0,0:0:0:0:
44,332,84389,2,0,B|63:266|60:200,1,120.000004577637,0|0,0:0|0:0,0:0:0:0:
96,100,84895,2,0,L|92:68,2,30.0000011444092,0|0|0,0:0|0:0|0:0,0:0:0:0:
204,132,85232,2,0,B|270:132|334:121,1,120.000004577637,0|0,0:0|0:0,0:0:0:0:
452,48,85737,2,0,L|388:44,1,60.0000022888184,2|2,1:2|0:0,0:0:0:0:
456,204,86075,2,0,L|524:192,1,60.0000022888184,0|0,0:0|0:0,0:0:0:0:
410,326,86412,6,0,B|369:314|328:324|298:350,1,120.000004577637,4|0,0:0|0:0,0:0:0:0:
227,363,86917,2,0,B|161:367|98:349,1,120.000004577637,0|0,0:0|0:0,0:0:0:0:
64,293,87423,1,0,0:0:0:0:
160,72,87760,2,0,B|167:104|163:135,1,60.0000022888184,0|0,0:0|0:0,0:0:0:0:
252,232,88097,2,0,B|253:197|264:164,1,60.0000022888184,0|0,0:0|0:0,0:0:0:0:
316,16,88434,1,0,0:0:0:0:
392,28,88603,1,0,0:0:0:0:
380,104,88771,1,0,0:0:0:0:
304,92,88940,1,0,0:0:0:0:
488,80,89108,6,0,B|481:146|460:206,1,120.000004577637,0|0,0:0|0:0,0:0:0:0:
401,315,89614,2,0,B|367:289|360:241|382:207,1,120.000004577637,0|0,0:0|0:0,0:0:0:0:
512,374,90119,2,0,L|448:384,1,60.0000022888184,0|0,0:0|0:0,0:0:0:0:
204,323,90457,1,0,0:0:0:0:
277,362,90625,2,0,B|301:326|293:279|262:252,1,120.000004577637,0|0,0:0|0:0,0:0:0:0:
364,122,91131,2,0,B|370:153|373:184,1,60.0000022888184,0|0,0:0|0:0,0:0:0:0:
203,107,91468,2,0,B|201:81|209:56|222:36,1,60.0000022888184,0|0,0:0|0:0,0:0:0:0:
360,8,91805,5,0,0:0:0:0:
446,235,92142,1,0,0:0:0:0:
446,235,92311,2,0,B|446:281|408:316|364:315,1,120.000004577637,0|0,0:0|0:0,0:0:0:0:
272,348,92816,1,0,0:0:0:0:
312,244,92985,1,0,0:0:0:0:
312,244,93069,1,0,0:0:0:0:
312,244,93153,1,0,0:0:0:0:
327,152,93322,2,0,B|328:85|349:24,1,120.000004577637,0|0,0:0|0:0,0:0:0:0:
450,157,93827,2,0,B|457:193|455:228,1,60.0000022888184,0|0,0:0|0:0,0:0:0:0:
362,348,94164,2,0,B|357:323|367:299|385:283,1,60.0000022888184,0|0,0:0|0:0,0:0:0:0:
244,368,94502,6,0,L|120:364,1,120.000004577637,0|0,0:0|0:0,0:0:0:0:
22,226,95007,2,0,B|48:226|72:236|91:250,1,60.0000022888184,0|0,0:0|0:0,0:0:0:0:
157,278,95344,1,0,0:0:0:0:
240,244,95513,2,0,L|233:116,1,120.000004577637,0|0,0:0|0:0,0:0:0:0:
163,16,96018,2,0,B|155:47|155:78,1,60.0000022888184,0|0,0:0|0:0,0:0:0:0:
352,142,96355,1,0,0:0:0:0:
352,142,96524,2,0,B|349:106|336:73,1,60.0000022888184,0|0,0:0|0:0,0:0:0:0:
327,251,96861,1,0,0:0:0:0:
353,253,96945,1,0,0:0:0:0:
378,250,97030,1,0,0:0:0:0:
402,244,97114,1,0,0:0:0:0:
428,232,97198,6,0,B|461:224|484:196|488:165,1,88.000002685547,4|0,1:0|0:0,0:0:0:0:
336,20,97535,1,8,1:2:0:0:
260,84,97704,2,0,L|169:71,1,88.000002685547,0|0,0:0|0:0,0:0:0:0:
172,71,98041,1,0,0:0:0:0:
8,256,98209,2,0,B|69:272|129:244|159:195,1,176.000005371094,8|0,1:2|1:0,0:0:0:0:
312,320,98715,5,0,0:0:0:0:
240,252,98884,2,0,B|214:278|208:316|220:347,1,88.000002685547,8|0,1:2|1:0,0:0:0:0:
336,216,99221,1,0,0:0:0:0:
176,184,99389,2,0,B|144:207|132:246|142:281,2,88.000002685547,0|8|0,1:0|1:2|0:0,0:0:0:0:
276,120,99895,6,0,B|240:65|179:38|119:43,1,176.000005371094,4|8,1:0|1:2,0:0:0:0:
288,244,100400,1,0,0:0:0:0:
292,260,100485,1,0,0:0:0:0:
296,276,100569,1,0,0:0:0:0:
428,321,100737,1,0,0:0:0:0:
412,180,100906,2,0,L|508:164,1,88.000002685547,8|0,1:2|0:0,0:0:0:0:
320,72,101243,5,0,1:0:0:0:
288,244,101412,2,0,L|192:260,2,88.000002685547,0|8|0,0:0|1:2|1:0,0:0:0:0:
400,268,101917,2,0,L|496:252,1,88.000002685547,0|0,0:0|1:0,0:0:0:0:
304,144,102254,1,8,1:2:0:0:
392,96,102423,1,0,0:0:0:0:
392,96,102507,1,0,0:0:0:0:
392,96,102591,6,0,B|410:70|419:40|420:11,1,88.000002685547,4|0,1:0|0:0,0:0:0:0:
220,208,102928,1,8,1:2:0:0:
308,248,103097,2,0,B|370:260|430:250|481:223,1,176.000005371094,0|0,0:0|0:0,0:0:0:0:
172,128,103603,2,0,B|107:116|43:123|-13:146,1,176.000005371094,8|0,1:2|1:0,0:0:0:0:
252,28,104108,5,0,0:0:0:0:
252,28,104193,1,0,0:0:0:0:
252,28,104277,2,0,L|272:120,1,88.000002685547,8|0,1:2|1:0,0:0:0:0:
328,284,104614,1,0,0:0:0:0:
416,152,104782,1,0,1:0:0:0:
248,256,104951,2,0,L|160:252,1,88.000002685547,8|0,1:2|0:0,0:0:0:0:
360,176,105288,6,0,B|421:159|483:175|528:212,1,176.000005371094,4|8,1:0|1:2,0:0:0:0:
244,44,105794,1,0,0:0:0:0:
228,163,105962,1,0,0:0:0:0:
300,112,106131,1,0,0:0:0:0:
170,96,106299,1,8,1:2:0:0:
304,304,106468,1,0,0:0:0:0:
304,304,106552,1,0,0:0:0:0:
304,304,106636,6,0,L|398:317,1,88.000002685547,0|0,1:0|0:0,0:0:0:0:
228,332,106973,1,8,1:2:0:0:
312,220,107142,1,0,1:0:0:0:
240,256,107311,1,0,0:0:0:0:
388,188,107479,1,0,1:0:0:0:
408,264,107648,2,0,B|445:271|480:263|508:244,1,88.000002685547,8|0,1:2|0:0,0:0:0:0:
272,128,107985,6,0,B|227:186|159:177|159:177|96:172,1,176.000005371094,4|8,1:0|1:2,0:0:0:0:
368,24,108490,1,0,0:0:0:0:
368,24,108575,1,0,0:0:0:0:
368,24,108659,2,0,L|384:128,1,88.000002685547,0|0,0:0|0:0,0:0:0:0:
180,268,108996,2,0,B|224:216|284:224|284:224|344:236,1,176.000005371094,10|2,1:2|1:2,0:0:0:0:
504,108,109502,5,0,0:0:0:0:
424,160,109670,2,0,B|387:161|352:152|322:135,1,88.000002685547,10|2,1:2|1:2,0:0:0:0:
96,240,110007,1,0,0:0:0:0:
112,212,110091,1,0,0:0:0:0:
138,190,110176,1,2,1:2:0:0:
170,180,110260,1,0,0:0:0:0:
208,184,110344,1,10,1:2:0:0:
352,296,110513,1,0,0:0:0:0:
432,244,110681,6,0,L|520:232,1,88.000002685547,4|0,1:0|0:0,0:0:0:0:
344,312,111018,1,8,1:2:0:0:
264,156,111187,1,0,0:0:0:0:
254,126,111271,1,0,0:0:0:0:
234,100,111355,1,0,0:0:0:0:
158,56,111524,2,0,L|70:44,1,88.000002685547,0|10,0:0|1:2,0:0:0:0:
308,228,111861,1,0,0:0:0:0:
388,172,112030,6,0,L|476:160,2,88.000002685547,2|0|10,1:2|0:0|1:2,0:0:0:0:
212,208,112535,1,2,1:2:0:0:
164,292,112704,2,0,L|176:381,2,88.000002685547,0|2|10,0:0|1:2|1:2,0:0:0:0:
132,136,113209,1,0,0:0:0:0:
220,92,113378,6,0,B|332:108|332:108|392:92,1,176.000005371094,4|8,1:0|1:2,0:0:0:0:
508,244,113884,1,0,0:0:0:0:
508,244,113968,1,0,0:0:0:0:
508,244,114052,2,0,B|446:237|387:256|341:290,1,176.000005371094,0|10,0:0|1:2,0:0:0:0:
124,172,114558,1,0,0:0:0:0:
212,212,114726,6,0,B|246:216|279:207|304:188,2,88.000002685547,2|0|10,1:2|0:0|1:2,0:0:0:0:
124,172,115232,1,2,1:2:0:0:
124,172,115316,1,0,0:0:0:0:
124,172,115400,1,0,0:0:0:0:
92,332,115569,1,2,1:2:0:0:
144,84,115737,1,10,1:2:0:0:
28,176,115906,1,0,0:0:0:0:
224,140,116075,6,0,B|285:157|350:148|350:148|389:105,1,176.000005371094,4|8,1:0|1:2,0:0:0:0:
508,256,116580,1,0,0:0:0:0:
508,256,116664,1,0,0:0:0:0:
508,256,116749,1,0,0:0:0:0:
460,172,116917,1,0,0:0:0:0:
420,344,117086,1,8,1:2:0:0:
236,284,117254,1,0,0:0:0:0:
236,284,117339,1,0,0:0:0:0:
236,284,117423,6,0,B|260:262|269:230|264:200,1,88.000002685547,0|0,1:0|0:0,0:0:0:0:
184,24,117760,1,8,1:2:0:0:
108,80,117928,2,0,L|17:86,1,88.000002685547,0|0,1:0|0:0,0:0:0:0:
272,128,118266,1,0,1:0:0:0:
272,128,118350,1,0,0:0:0:0:
272,128,118434,2,0,L|369:118,1,88.000002685547,8|0,1:2|0:0,0:0:0:0:
424,308,118771,6,0,L|244:323,1,176.000005371094,4|8,1:0|1:2,0:0:0:0:
124,224,119277,1,0,0:0:0:0:
80,136,119445,2,0,B|107:121|138:121|164:132,1,88.000002685547,0|0,0:0|0:0,0:0:0:0:
164,132,119698,1,0,0:0:0:0:
164,132,119782,1,8,1:2:0:0:
124,332,119951,1,0,0:0:0:0:
288,252,120119,6,0,L|200:260,1,88.000002685547,0|0,1:0|0:0,0:0:0:0:
40,216,120457,1,8,1:2:0:0:
208,340,120625,1,0,1:2:0:0:
284,168,120794,2,0,L|371:159,1,88.000002685547,0|0,0:0|1:0,0:0:0:0:
462,22,121131,2,0,B|435:6|404:7|378:20,1,88.000002685547,8|0,1:2|0:0,0:0:0:0:
336,36,121384,1,0,0:0:0:0:
292,60,121468,6,0,B|262:78|226:75|200:56,1,88.000002685547,4|0,1:0|0:0,0:0:0:0:
358,160,121805,1,8,1:2:0:0:
172,124,121973,2,0,B|144:109|112:112|88:128,1,88.000002685547,0|0,0:0|0:0,0:0:0:0:
137,215,122311,1,0,0:0:0:0:
288,280,122479,2,0,B|343:311|407:303|453:268,1,176.000005371094,8|0,1:2|1:0,0:0:0:0:
488,172,122985,5,0,0:0:0:0:
296,192,123153,2,0,L|288:280,1,88.000002685547,8|0,1:2|1:0,0:0:0:0:
345,125,123490,2,0,B|319:108|288:107|262:119,1,88.000002685547,0|0,0:0|1:0,0:0:0:0:
180,108,123827,1,8,1:2:0:0:
216,196,123996,5,0,0:0:0:0:
216,196,124080,1,0,0:0:0:0:
216,196,124164,2,0,L|124:196,1,88.000002685547,4|0,1:0|0:0,0:0:0:0:
64,256,124502,1,8,1:2:0:0:
179,108,124670,2,0,B|148:96|148:96|92:96,1,88.000002685547,0|0,0:0|0:0,0:0:0:0:
20,148,125007,1,0,0:0:0:0:
152,288,125176,2,0,L|326:302,1,176.000005371094,8|0,1:2|1:0,0:0:0:0:
405,347,125681,5,0,0:0:0:0:
304,204,125850,2,0,L|194:193,1,88.000002685547,8|0,1:2|1:0,0:0:0:0:
64,256,126187,1,0,0:0:0:0:
25,346,126355,2,0,B|55:361|89:357|114:339,1,88.000002685547,0|8,1:0|1:2,0:0:0:0:
180,96,126693,5,0,0:0:0:0:
180,96,126777,1,0,0:0:0:0:
181,95,126861,2,0,L|268:103,1,88.000002685547,4|0,1:0|0:0,0:0:0:0:
346,64,127198,1,8,1:2:0:0:
487,195,127367,2,0,B|369:196|369:196|327:153,1,176.000005371094,0|0,0:0|0:0,0:0:0:0:
258,211,127872,2,0,L|331:289,1,88.000002685547,8|0,1:2|0:0,0:0:0:0:
408,292,128209,5,0,1:0:0:0:
424,112,128378,1,0,0:0:0:0:
257,129,128546,2,0,B|199:127|199:127|161:108,1,88.000002685547,8|0,1:2|1:0,0:0:0:0:
232,32,128884,1,0,0:0:0:0:
106,179,129052,2,0,B|184:220|184:220,1,88.000002685547,0|8,1:0|1:2,0:0:0:0:
280,252,129389,5,0,0:0:0:0:
296,232,129473,1,0,0:0:0:0:
308,216,129558,2,0,L|399:216,1,88.000002685547,4|0,1:0|0:0,0:0:0:0:
460,156,129895,1,8,1:2:0:0:
334,311,130063,2,0,L|422:311,1,88.000002685547,0|0,0:0|0:0,0:0:0:0:
496,248,130400,1,0,0:0:0:0:
361,127,130569,2,0,B|296:128|296:128|242:114|242:114|169:114,1,176.000005371094,10|2,1:2|1:2,0:0:0:0:
136,180,131075,5,0,0:0:0:0:
279,27,131243,2,0,B|293:55|292:86|279:111,1,88.000002685547,10|2,1:2|1:2,0:0:0:0:
188,66,131580,1,0,0:0:0:0:
48,116,131749,2,0,B|33:88|34:57|47:31,2,88.000002685547,2|10|0,1:2|1:2|0:0,0:0:0:0:
92,284,132254,6,0,B|129:284|129:284|177:297,1,88.000002685547,4|0,1:0|0:0,0:0:0:0:
309,348,132591,1,8,1:2:0:0:
377,200,132760,2,0,B|332:200|332:200|289:212,1,88.000002685547,0|0,0:0|0:0,0:0:0:0:
178,298,133097,1,0,0:0:0:0:
24,112,133266,2,0,B|97:112|97:112|195:143,1,176.000005371094,10|2,1:2|1:2,0:0:0:0:
256,92,133771,5,0,0:0:0:0:
208,252,133940,2,0,L|118:225,1,88.000002685547,10|2,1:2|1:2,0:0:0:0:
256,92,134277,1,0,0:0:0:0:
304,252,134445,2,0,L|393:222,1,88.000002685547,2|10,1:2|1:2,0:0:0:0:
473,128,134782,1,0,0:0:0:0:
485,152,134867,1,0,0:0:0:0:
493,176,134951,6,0,B|505:205|503:235|493:261,1,88.000002685547,4|0,1:0|0:0,0:0:0:0:
348,356,135288,1,8,1:2:0:0:
208,252,135457,2,0,B|196:222|198:190|210:163,1,88.000002685547,0|0,0:0|0:0,0:0:0:0:
276,108,135794,1,0,0:0:0:0:
455,173,135962,2,0,B|410:211|410:211|289:212,1,176.000005371094,10|2,1:2|1:2,0:0:0:0:
224,172,136468,5,0,0:0:0:0:
399,230,136636,2,0,L|382:318,1,88.000002685547,10|2,1:2|1:2,0:0:0:0:
296,348,136973,1,0,0:0:0:0:
216,213,137142,2,0,L|200:300,2,88.000002685547,2|10|0,1:2|1:2|0:0,0:0:0:0:
300,144,137648,6,0,B|328:157|359:154|383:139,1,88.000002685547,4|0,1:0|0:0,0:0:0:0:
332,48,137985,1,8,1:2:0:0:
152,208,138153,2,0,B|123:220|92:218|67:205,1,88.000002685547,0|0,0:0|0:0,0:0:0:0:
116,116,138490,1,0,0:0:0:0:
272,172,138659,2,0,B|272:284|272:284|310:335,1,176.000005371094,8|0,1:2|1:0,0:0:0:0:
396,316,139164,5,0,0:0:0:0:
232,248,139333,2,0,L|144:248,1,88.000002685547,8|0,1:2|1:0,0:0:0:0:
360,196,139670,1,0,0:0:0:0:
280,344,139839,1,0,1:0:0:0:
440,240,140007,1,8,1:2:0:0:
272,172,140176,1,0,1:0:0:0:
440,28,140344,5,4,0:0:0:0:
